Скачать через торрент Джим Пуговка и машинист Лукас Jim Knopf und Lukas der Lokomotivf?hrer Фильм бесплатно в хорошем качестве torrent

Скачивайте на UnionPeer.org фильмы через торрент без регистрации. Новинки кино в хорошем качестве через торрент. На UnionPeer.org можно скачать через торрент фильмы 2014 и 2015 годов. Самые новые фильмы.

Скачать торрент Джим Пуговка и машинист Лукас Jim Knopf und Lukas der Lokomotivf?hrer бесплатно через .torrent фильм мультфильм сериал

Статистика раздачи
Размер:  1.68 GB   |    Зарегистрирован:  17 дней   |    .torrent скачан:  26 раз   |   
Раздают:  1  
   
загрузка...
 
Автор Сообщение

Galfimbul

avatar Galfimbul


Джим Пуговка и машинист Лукас / Jim Knopf und Lukas der Lokomotivf?hrer
«Приключение начинается...»


Год выпуска: 2018
Страна: Германия
Производство: Rat Pack Filmproduktion, Malao Film, Studio Babelsberg
Жанр: Фэнтези, приключения, семейный
Режиссёр: Дэннис Ганзель
В ролях: Хеннинг Баум, Као Ченмин, Энди Чунг, Тадаси Эндо, Лейганн Эсперанцате, Аннета Фрир, Томас Фритш, Соломон Гордон, Эден Гоф, Михаэль Хербиг
Перевод: Дублированный | [iTunes]
Субтитры: Английские (Full)
Реклама: Отсутствует

Описание: Волшебная страна Медландия расположена на острове. Сюда почтальон доставляет посылку c маленьким мальчиком. Он вырастает в храброго искателя приключений. На поезде-вездеходе Джим отправляется через океан и пустыню в город Драконов, чтобы спасти принцессу.


Качество: BDRip-AVC | BluRay Disc | Jim Button and Luke the Engine Driver 2018 1080p GER Blu-Ray AVC Atmos TrueHD 7.1
Продолжительность: 01:49:45

Формат: MKV
Видео кодек: MPEG-4 AVC
Аудио кодек: AC3
Видео: 1024x426 (2.40:1), 23,976 fps, x264 ~1 808 kbps avg, 0.173 bit/pixel
Аудио: 48 kHz, AC3 Dolby Digital, 3/2 (L,C,R,l,r) + LFE ch, ~384.00 kbps avg | RUS (iTunes)
Дата премьеры (мир): 29 марта 2018
Дата премьеры (РФ): 28 июня 2018, «Capella Film»
Цифровой релиз: 1 ноября 2018, «Capella Film»
Общее
Уникальный идентификатор : 280804291976698477923079540928856217513 (0xD340F07F56C4AE6FD0BC17C6394057A9)
Полное имя : F:OlLanDGroupJim.Button.and.Luke.the.Engine.Driver.2018.BDRip(AVC).OlLanDGroup.mkv
Формат : Matroska
Версия формата : Version 4 / Version 2
Размер файла : 1,68 Гбайт
Продолжительность : 1 ч. 49 м.
Общий поток : 2193 Кбит/сек
Название фильма : Jim.Button.and.Luke.the.Engine.Driver.2018 #TorpedoUK#
Дата кодирования : UTC 2019-01-06 19:23:37
Программа кодирования : mkvmerge v29.0.0 ('Like It Or Not') 64-bit
Библиотека кодирования : libebml v1.3.6 + libmatroska v1.4.9

Видео
Идентификатор : 1
Формат : AVC
Формат/Информация : Advanced Video Codec
Профиль формата : High@L4.1
Параметр CABAC формата : Да
Параметр ReFrames формата : 10 кадров
Идентификатор кодека : V_MPEG4/ISO/AVC
Продолжительность : 1 ч. 49 м.
Битрейт : 1808 Кбит/сек
Ширина : 1024 пикселя
Высота : 426 пикселей
Соотношение сторон : 2,40:1
Режим частоты кадров : Постоянный
Частота кадров : 23,976 (24000/1001) кадра/сек
Цветовое пространство : YUV
Субдискретизация насыщенности : 4:2:0
Битовая глубина : 8 бит
Тип развёртки : Прогрессивная
Бит/(Пиксели*Кадры) : 0.173
Размер потока : 1,39 Гбайт (82%)
Библиотека кодирования : x264 core 146 r2538 121396c
Настройки программы : cabac=1 / ref=10 / deblock=1:-3:-3 / analyse=0x3:0x113 / me=umh / subme=11 / psy=1 / psy_rd=1.00:0.03 / mixed_ref=1 / me_range=48 / chroma_me=1 / trellis=2 / 8x8dct=1 / cqm=0 / deadzone=21,11 / fast_pskip=1 / chroma_qp_offset=-3 / threads=6 / lookahead_threads=1 / sliced_threads=0 / nr=0 / decimate=1 / interlaced=0 / bluray_compat=0 / constrained_intra=0 / bframes=11 / b_pyramid=2 / b_adapt=2 / b_bias=0 / direct=3 / weightb=1 / open_gop=0 / weightp=2 / keyint=240 / keyint_min=23 / scenecut=40 / intra_refresh=0 / rc_lookahead=40 / rc=2pass / mbtree=0 / bitrate=1808 / ratetol=1.0 / qcomp=0.60 / qpmin=0 / qpmax=69 / qpstep=4 / cplxblur=20.0 / qblur=0.5 / vbv_maxrate=50000 / vbv_bufsize=62500 / nal_hrd=none / filler=0 / ip_ratio=1.40 / pb_ratio=1.30 / aq=1:1.00
Язык : English
Default : Да
Forced : Нет

Аудио
Идентификатор : 2
Формат : AC-3
Формат/Информация : Audio Coding 3
Расширение режима : CM (complete main)
Параметр Endianness формата : Big
Идентификатор кодека : A_AC3
Продолжительность : 1 ч. 49 м.
Вид битрейта : Постоянный
Битрейт : 384 Кбит/сек
Каналы : 6 каналов
Расположение каналов : Front: L C R, Side: L R, LFE
Частота : 48,0 КГц
Частота кадров : 31,250 кадров/сек (1536 spf)
Битовая глубина : 16 бит
Метод сжатия : С потерями
Размер потока : 301 Мбайт (18%)
Заголовок : DUB [iTunes]
Язык : Russian
Default : Да
Forced : Нет

Текст
Идентификатор : 3
Формат : UTF-8
Идентификатор кодека : S_TEXT/UTF8
Идентификатор кодека/Информация : UTF-8 Plain Text
Продолжительность : 1 ч. 40 м.
Битрейт : 42 бит/сек
Count of elements : 1112
Размер потока : 31,7 Кбайт (0%)
Заголовок : Full
Язык : English
Default : Нет
Forced : Нет

Меню
00:00:00.000 : :Глава 01
00:08:29.800 : :Глава 02
00:17:28.964 : :Глава 03
00:27:20.180 : :Глава 04
00:37:23.491 : :Глава 05
00:45:46.577 : :Глава 06
00:54:37.190 : :Глава 07
01:02:09.517 : :Глава 08
01:14:04.982 : :Глава 09
01:24:52.754 : :Глава 10
01:33:58.090 : :Глава 11
01:40:14.091 : :Глава 12
Источник http://BlaTor.org

Трекер:  [ 06-Янв-2019 23:20 ]

  

Скачать .torrent

Размер .torrent файла 17 KB


Размер: 1.68 GB
Хэш (hash) релиза: efdb4eb159737bca242c45f53529e07962c5e2e4
Подписка на обновления:

Торренты, похожие на Джим Пуговка и машинист Лукас Jim Knopf und Lukas der Lokomotivf?hrer скачать торрент

Форум Название Автор Размер S L Добавлен
Зарубежные фильмы 2016-2018 (Новинки зарубежного кино) ·%· Джим Пуговка и машинист Лукас / Jim Knopf und Lukas der Lokomotivf?hrer (2018) BDRip от ExKinoRay | iTunes Galfimbul 15185365541.41 GB 0 0 1545933028

20:50

27-Дек-18

Зарубежные фильмы 2016-2018 (Новинки зарубежного кино) ·%· Джим Пуговка и машинист Лукас / Jim Knopf und Lukas der Lokomotivf?hrer (2018) BDRip от ExKinoRay | iTunes Galfimbul 22932480002.14 GB 0 0 1545933015

20:50

27-Дек-18

Зарубежные фильмы 2016-2018 (Новинки зарубежного кино) ·%· Джим Пуговка и машинист Лукас / Jim Knopf und Lukas der Lokomotivf?hrer (2018) BDRip 1080p от селезень | iTunes Galfimbul 102768393889.57 GB 0 0 1545742824

16:00

25-Дек-18

Зарубежные фильмы 2016-2018 (Новинки зарубежного кино) ·%· Джим Пуговка и машинист Лукас / Jim Knopf und Lukas der Lokomotivf?hrer (2018) BDRemux 1080p от селезень | iTunes Galfimbul 2781468362825.9 GB 0 0 1545739810

15:10

25-Дек-18

Зарубежные фильмы 2016-2018 (Новинки зарубежного кино) ·%· Джим Пуговка и машинист Лукас / Jim Knopf und Lukas der Lokomotivf?hrer (2018) UHD Blu-Ray 2160p | 4K | HDR | iTunes Galfimbul 5872899162554.7 GB 0 0 1543452070

03:41

29-Ноя-18

Зарубежные фильмы 2016-2018 (Новинки зарубежного кино) ·%· Джим Пуговка и машинист Лукас / Jim Knopf und Lukas der Lokomotivf?hrer (2018) UHD BDRemux 2160p от селезень | 4K | HDR | iTunes Galfimbul 5418041633650.46 GB 0 0 1543283411

04:50

27-Ноя-18

Зарубежные фильмы 2016-2018 (Новинки зарубежного кино) ·%· Джим Пуговка и машинист Лукас / Jim Knopf und Lukas der Lokomotivf?hrer (2018) WEB-DLRip | КПК | iTunes Galfimbul 458563958437 MB 0 0 1541331699

14:41

4-Ноя-18

Зарубежные фильмы 2016-2018 (Новинки зарубежного кино) ·%· Джим Пуговка и машинист Лукас / Jim Knopf und Lukas der Lokomotivf?hrer (2018) WEB-DLRip от MegaPeer | iTunes Galfimbul 781645824745 MB 0 0 1541152993

13:03

2-Ноя-18

Зарубежные фильмы 2016-2018 (Новинки зарубежного кино) ·%· Джим Пуговка и машинист Лукас / Jim Knopf und Lukas der Lokomotivf?hrer (2018) WEB-DL 720р | iTunes Galfimbul 37841736613.52 GB 0 0 1541060952

11:29

1-Ноя-18

Еще никто не оставлял запись к записи скачать торрент Джим Пуговка и машинист Лукас Jim Knopf und Lukas der Lokomotivf?hrer . Будь первым!

!Обратная связь
saison 9, épisode 2 - Enfance volée | NCIS Los Angeles S10E13 720p HDTV x264-AVS[eztv] mkv | HD 720P 2018 5,6 Break My Heart 1000 Times