Скачать через торрент Экзорцист Демонолог Фильм бесплатно в хорошем качестве torrent

Скачивайте на UnionPeer.org фильмы через торрент без регистрации. Новинки кино в хорошем качестве через торрент. На UnionPeer.org можно скачать через торрент фильмы 2014 и 2015 годов. Самые новые фильмы.

Скачать торрент Экзорцист Демонолог бесплатно через .torrent фильм мультфильм сериал

Статистика раздачи
Размер:  1.38 GB   |    Зарегистрирован:  17 дней   |    .torrent скачан:  32 раза   |   
Раздают:  1  
   
загрузка...
 
Автор Сообщение

Galfimbul

avatar Galfimbul


Экзорцист / Демонолог /The Demonologist

Год выхода: 2018
Жанр: Ужасы
Режиссер: Дж.М. Стелли
В ролях: Брайан Краузе, Джаред Банкенс, Лара Грайс, Томас Мерфи, Кейт Туманова, Джефф Пирсон, Ронда Дентс, Манон Пейдж, Скотт Аллен Перри, Киган Мэйси
О фильме:
Детектив, расследующий серию убийств, выходит на группу людей, желающих воскресить короля тьмы.



Страна: США, CS West Productions, Thriller Films, Tip-Top Productions
Продолжительность: 01:40:35
Перевод: Любительский (двухголосый закадровый) | HiWay Grope

Файл
Кодек: XviD
Качество: WEBRip
Видео: 720x400, 23.976 fps, ~1566 kbps, 0.23 bit/pixel
Звук:
Аудио rus: AC3, 48 kHz, 6 ch, 384 Kbps
Субтитры: отсутствуют

Реклама: присутствует

Семпл
General
Complete name : D:The.Demonologist.2018.WEBRip.HiWayGropeThe.Demonologist.2018.WEBRip.HiWayGrope.avi
Format : AVI
Format/Info : Audio Video Interleave
File size : 1.38 GiB
Duration : 1 h 40 min
Overall bit rate : 1 960 kb/s
Writing application : VirtualDubMod 1.5.10.3 (build 2550/release)
Writing library : VirtualDubMod build 2550/release

Video
ID : 0
Format : MPEG-4 Visual
Format profile : Simple@L5
Format settings : BVOP1
Format settings, BVOP : 1
Format settings, QPel : No
Format settings, GMC : No warppoints
Format settings, Matrix : Default (MPEG)
Codec ID : XVID
Codec ID/Hint : XviD
Duration : 1 h 40 min
Bit rate : 1 567 kb/s
Width : 720 pixels
Height : 400 pixels
Display aspect ratio : 16:9
Frame rate : 23.976 (24000/1001) FPS
Color space : YUV
Chroma subsampling : 4:2:0
Bit depth : 8 bits
Scan type : Progressive
Compression mode : Lossy
Bits/(Pixel*Frame) : 0.227
Stream size : 1.10 GiB (80%)
Writing library : XviD 67

Audio
ID : 1
Format : AC-3
Format/Info : Audio Coding 3
Commercial name : Dolby Digital
Codec ID : 2000
Duration : 1 h 40 min
Bit rate mode : Constant
Bit rate : 384 kb/s
Channel(s) : 6 channels
Channel layout : L R C LFE Ls Rs
Sampling rate : 48.0 kHz
Frame rate : 31.250 FPS (1536 SPF)
Bit depth : 16 bits
Compression mode : Lossy
Stream size : 276 MiB (20%)
Alignment : Split accross interleaves
Interleave, duration : 42 ms (1.00 video frame)
Interleave, preload duration : 500 ms
Service kind : Complete Main
Релиз от: HiWay Grope
Источник http://BlaTor.org

Трекер:  [ 06-Янв-2019 21:30 ]

  

Скачать .torrent

Размер .torrent файла 14 KB


Размер: 1.38 GB
Хэш (hash) релиза: 463027f327ddf602e774fd28771486a4b5d906fa
Подписка на обновления:

Торренты, похожие на Экзорцист Демонолог скачать торрент

Форум Название Автор Размер S L Добавлен
Зарубежные фильмы 2016-2018 (Новинки зарубежного кино) ·%· Экзорцист / Демонолог / The Demonologist (2018) WEBRip 720p | L2 Galfimbul 22861515242.13 GB 0 0 1546799412

21:30

6-Янв-19

Еще никто не оставлял запись к записи скачать торрент Экзорцист Демонолог . Будь первым!

!Обратная связь
High Heel | └ Modellbau | Beautiful Boy