Скачать через торрент Джим Пуговка и машинист Лукас Jim Knopf und Lukas der Lokomotivf?hrer Фильм бесплатно в хорошем качестве torrent

Скачивайте на UnionPeer.org фильмы через торрент без регистрации. Новинки кино в хорошем качестве через торрент. На UnionPeer.org можно скачать через торрент фильмы 2014 и 2015 годов. Самые новые фильмы.

Скачать торрент Джим Пуговка и машинист Лукас Jim Knopf und Lukas der Lokomotivf?hrer бесплатно через .torrent фильм мультфильм сериал

Статистика раздачи
Размер:  25.9 GB   |    Зарегистрирован:  30 дней   |    .torrent скачан:  12 раз   |   
Раздают:  1  
   
загрузка...
 
Автор Сообщение

Galfimbul

avatar Galfimbul


Джим Пуговка и машинист Лукас /Jim Knopf und Lukas der Lokomotivf?hrer

Год выхода: 2018
Жанр: Фэнтези, приключения, семейный
Режиссер: Дэннис Ганзель
В ролях: Хеннинг Баум, Као Ченмин, Энди Чунг, Тадаси Эндо, Лейганн Эсперанцате, Аннета Фрир, Томас Фритш, Соломон Гордон, Эден Гоф, Михаэль Хербиг



О фильме: Волшебная страна Медландия расположена на острове. Сюда почтальон доставляет посылку c маленьким мальчиком. Он вырастает в храброго искателя приключений. На поезде-вездеходе Джим отправляется через океан и пустыню в город Драконов, чтобы спасти принцессу.

Страна: Германия
Студия: Rat Pack Filmproduktion, Malao Film, Studio Babelsberg
Продолжительность: 01:49:53
Перевод: Дублированный | iTunes

Качество: BDRemux 1080p
Видео: MPEG-4 AVC, 1920x1080, 27.9 Mbit/s, 23.976 fps
Звук:
Аудио #01: 48 kHz, AC3, 5.1, 384 Kbps | iTunes | RUS |
Аудио #02: 48 kHz, TrueHD, 7.1, 4822 Kbps | Оригинал | GER |
Аудио #03: 48 kHz, AC3, 5.1, 640 Kbps | Оригинал | GER |

General
Unique ID : 327938825523867133905579068186441957435 (0xF6B6B86C2870E1F2BE6EE98C763E403B)
Complete name : D:Video111Jim.Button.and.Luke.the.Engine.Driver.2018.BDREMUX.1080p.selezen.mkv
Format : Matroska
Format version : Version 4
File size : 25.9 GiB
Duration : 1 h 49 min
Overall bit rate mode : Variable
Overall bit rate : 33.7 Mb/s
Movie name : Jim Button and Luke the Engine Driver 2018 from селезень
Encoded date : UTC 2018-12-25 11:27:12
Writing application : mkvmerge v29.0.0 ('Like It Or Not') 64-bit
Writing library : libebml v1.3.6 + libmatroska v1.4.9

Video
ID : 1
Format : AVC
Format/Info : Advanced Video Codec
Format profile : High@L4.1
Format settings : CABAC / 3 Ref Frames
Format settings, CABAC : Yes
Format settings, ReFrames : 3 frames
Codec ID : V_MPEG4/ISO/AVC
Duration : 1 h 49 min
Bit rate mode : Variable
Bit rate : 27.9 Mb/s
Maximum bit rate : 30.0 Mb/s
Width : 1 920 pixels
Height : 1 080 pixels
Display aspect ratio : 16:9
Frame rate mode : Constant
Frame rate : 23.976 (24000/1001) FPS
Color space : YUV
Chroma subsampling : 4:2:0
Bit depth : 8 bits
Scan type : Progressive
Bits/(Pixel*Frame) : 0.561
Stream size : 21.4 GiB (82%)
Language : English
Default : Yes
Forced : No

Audio #1
ID : 2
Format : AC-3
Format/Info : Audio Coding 3
Commercial name : Dolby Digital
Codec ID : A_AC3
Duration : 1 h 49 min
Bit rate mode : Constant
Bit rate : 384 kb/s
Channel(s) : 6 channels
Channel layout : L R C LFE Ls Rs
Sampling rate : 48.0 kHz
Frame rate : 31.250 FPS (1536 SPF)
Bit depth : 16 bits
Compression mode : Lossy
Stream size : 301 MiB (1%)
Title : iTunes
Language : Russian
Service kind : Complete Main
Default : Yes
Forced : Yes

Audio #2
ID : 3
Format : MLP FBA 16-ch
Format/Info : Meridian Lossless Packing FBA with 16-channel presentation
Commercial name : Dolby TrueHD with Dolby Atmos
Codec ID : A_TRUEHD
Duration : 1 h 49 min
Bit rate mode : Variable
Bit rate : 4 822 kb/s
Maximum bit rate : 8 115 kb/s
Channel(s) : 8 channels
Channel layout : L R C LFE Ls Rs Lb Rb
Sampling rate : 48.0 kHz
Frame rate : 1 200.000 FPS (40 SPF)
Compression mode : Lossless
Stream size : 3.70 GiB (14%)
Title : Original
Language : German
Default : No
Forced : No
Number of dynamic objects : 11
Bed channel count : 1 channel
Bed channel configuration : LFE

Audio #3
ID : 4
Format : AC-3
Format/Info : Audio Coding 3
Commercial name : Dolby Digital
Codec ID : A_AC3
Duration : 1 h 49 min
Bit rate mode : Constant
Bit rate : 640 kb/s
Channel(s) : 6 channels
Channel layout : L R C LFE Ls Rs
Sampling rate : 48.0 kHz
Frame rate : 31.250 FPS (1536 SPF)
Bit depth : 16 bits
Compression mode : Lossy
Stream size : 503 MiB (2%)
Language : German
Service kind : Complete Main
Default : No
Forced : No

Menu
00:00:00.000 : en:Глава 01
00:08:29.801 : en:Глава 02
00:17:28.965 : en:Глава 03
00:27:20.180 : en:Глава 04
00:37:23.491 : en:Глава 05
00:45:46.577 : en:Глава 06
00:54:37.191 : en:Глава 07
01:02:09.517 : en:Глава 08
01:14:04.982 : en:Глава 09
01:24:52.754 : en:Глава 10
01:33:58.091 : en:Глава 11
01:40:14.091 : en:Глава 12
Источник http://BlaTor.org

Трекер:  [ 25-Дек-2018 15:10 ]

  

Скачать .torrent

Размер .torrent файла 33 KB


Размер: 25.9 GB
Хэш (hash) релиза: a895a129d7a029750ceb08d72628a02a4e98ab79
Подписка на обновления:

Торренты, похожие на Джим Пуговка и машинист Лукас Jim Knopf und Lukas der Lokomotivf?hrer скачать торрент

Форум Название Автор Размер S L Добавлен
Зарубежные фильмы 2016-2018 (Новинки зарубежного кино) ·%· Джим Пуговка и машинист Лукас / Jim Knopf und Lukas der Lokomotivf?hrer (2018) BDRip-AVC от OlLanDGroup | iTunes Galfimbul 18056289841.68 GB 0 0 1546806007

23:20

6-Янв-19

Зарубежные фильмы 2016-2018 (Новинки зарубежного кино) ·%· Джим Пуговка и машинист Лукас / Jim Knopf und Lukas der Lokomotivf?hrer (2018) BDRip от ExKinoRay | iTunes Galfimbul 15185365541.41 GB 0 0 1545933028

20:50

27-Дек-18

Зарубежные фильмы 2016-2018 (Новинки зарубежного кино) ·%· Джим Пуговка и машинист Лукас / Jim Knopf und Lukas der Lokomotivf?hrer (2018) BDRip от ExKinoRay | iTunes Galfimbul 22932480002.14 GB 0 0 1545933015

20:50

27-Дек-18

Зарубежные фильмы 2016-2018 (Новинки зарубежного кино) ·%· Джим Пуговка и машинист Лукас / Jim Knopf und Lukas der Lokomotivf?hrer (2018) BDRip 1080p от селезень | iTunes Galfimbul 102768393889.57 GB 0 0 1545742824

16:00

25-Дек-18

Зарубежные фильмы 2016-2018 (Новинки зарубежного кино) ·%· Джим Пуговка и машинист Лукас / Jim Knopf und Lukas der Lokomotivf?hrer (2018) UHD Blu-Ray 2160p | 4K | HDR | iTunes Galfimbul 5872899162554.7 GB 0 0 1543452070

03:41

29-Ноя-18

Зарубежные фильмы 2016-2018 (Новинки зарубежного кино) ·%· Джим Пуговка и машинист Лукас / Jim Knopf und Lukas der Lokomotivf?hrer (2018) UHD BDRemux 2160p от селезень | 4K | HDR | iTunes Galfimbul 5418041633650.46 GB 0 0 1543283411

04:50

27-Ноя-18

Зарубежные фильмы 2016-2018 (Новинки зарубежного кино) ·%· Джим Пуговка и машинист Лукас / Jim Knopf und Lukas der Lokomotivf?hrer (2018) WEB-DLRip | КПК | iTunes Galfimbul 458563958437 MB 0 0 1541331699

14:41

4-Ноя-18

Зарубежные фильмы 2016-2018 (Новинки зарубежного кино) ·%· Джим Пуговка и машинист Лукас / Jim Knopf und Lukas der Lokomotivf?hrer (2018) WEB-DLRip от MegaPeer | iTunes Galfimbul 781645824745 MB 0 0 1541152993

13:03

2-Ноя-18

Зарубежные фильмы 2016-2018 (Новинки зарубежного кино) ·%· Джим Пуговка и машинист Лукас / Jim Knopf und Lukas der Lokomotivf?hrer (2018) WEB-DL 720р | iTunes Galfimbul 37841736613.52 GB 0 0 1541060952

11:29

1-Ноя-18

Еще никто не оставлял запись к записи скачать торрент Джим Пуговка и машинист Лукас Jim Knopf und Lukas der Lokomotivf?hrer . Будь первым!

!Обратная связь
This Is Spinal Tap | Square Cut Nails 200 Rustic 2-1/4” Long Nos Rusty Primitive 2lbs + | Overboard