Скачать через торрент Джим Пуговка и машинист Лукас Jim Knopf und Lukas der Lokomotivf?hrer Фильм бесплатно в хорошем качестве torrent

Скачивайте на UnionPeer.org фильмы через торрент без регистрации. Новинки кино в хорошем качестве через торрент. На UnionPeer.org можно скачать через торрент фильмы 2014 и 2015 годов. Самые новые фильмы.

Скачать торрент Джим Пуговка и машинист Лукас Jim Knopf und Lukas der Lokomotivf?hrer бесплатно через .torrent фильм мультфильм сериал

Статистика раздачи
Размер:  50.46 GB   |    Зарегистрирован:  1 месяц 27 дней   |    .torrent скачан:  70 раз   |   
Раздают:  1  
   
загрузка...
 
Автор Сообщение

Galfimbul

avatar Galfimbul


Джим Пуговка и машинист Лукас /Jim Knopf und Lukas der Lokomotivf?hrer

Год выхода: 2018
Жанр: Фэнтези, приключения, семейный
Режиссер: Дэннис Ганзель
В ролях: Хеннинг Баум, Као Ченмин, Энди Чунг, Тадаси Эндо, Лейганн Эсперанцате, Аннета Фрир, Томас Фритш, Соломон Гордон, Эден Гоф, Михаэль Хербиг



О фильме: Волшебная страна Медландия расположена на острове. Сюда почтальон доставляет посылку c маленьким мальчиком. Он вырастает в храброго искателя приключений. На поезде-вездеходе Джим отправляется через океан и пустыню в город Драконов, чтобы спасти принцессу.

Страна: Германия
Студия: Rat Pack Filmproduktion, Malao Film, Studio Babelsberg
Продолжительность: 01:49:46
Перевод: Дублированный | iTunes

Качество: BDRemux 2160p
Видео: MPEG-H HEVC HDR Video, 3840x2160, 59.9 Mbit/s, 23.976 fps
Звук:
Аудио #01: 48 kHz, AC3, 5.1, 384 Kbps | iTunes | RUS |
Аудио #02: 48 kHz, TrueHD, 7.1, 4825 Kbps | Оригинал | GER |
Аудио #03: 48 kHz, AC3, 5.1, 640 Kbps | Оригинал | GER |

General
Unique ID : 846528637371001491228062589553878931 (0xA309158E04398FAD99F82D0B562793)
Complete name : D:Video111Jim.Knopf.und.Lukas.der.Lokomotivfuehrer.2018.BDREMUX.2160p.HDR.mkv
Format : Matroska
Format version : Version 4
File size : 50.5 GiB
Duration : 1 h 49 min
Overall bit rate mode : Variable
Overall bit rate : 65.8 Mb/s
Movie name : Jim Knopf und Lukas der Lokomotivfuehrer 2018 4K from селезень
Encoded date : UTC 2018-11-27 00:38:18
Writing application : mkvmerge v28.2.0 ('The Awakening') 64-bit
Writing library : libebml v1.3.6 + libmatroska v1.4.9

Video
ID : 1
Format : HEVC
Format/Info : High Efficiency Video Coding
Commercial name : HDR10
Format profile : Main 10@L5.1@High
Codec ID : V_MPEGH/ISO/HEVC
Duration : 1 h 49 min
Bit rate : 59.9 Mb/s
Width : 3 840 pixels
Height : 2 160 pixels
Display aspect ratio : 16:9
Frame rate mode : Constant
Frame rate : 23.976 (24000/1001) FPS
Color space : YUV
Chroma subsampling : 4:2:0 (Type 2)
Bit depth : 10 bits
Bits/(Pixel*Frame) : 0.301
Stream size : 45.9 GiB (91%)
Language : German
Default : Yes
Forced : No
Color range : Limited
Color primaries : BT.2020
Transfer characteristics : PQ
Matrix coefficients : BT.2020 non-constant
Mastering display color pri : Display P3
Mastering display luminance : min: 0.0001 cd/m2, max: 1000 cd/m2
Maximum Content Light Level : 1000 cd/m2
Maximum Frame-Average Light : 180 cd/m2

Audio #1
ID : 2
Format : AC-3
Format/Info : Audio Coding 3
Commercial name : Dolby Digital
Codec ID : A_AC3
Duration : 1 h 49 min
Bit rate mode : Constant
Bit rate : 384 kb/s
Channel(s) : 6 channels
Channel layout : L R C LFE Ls Rs
Sampling rate : 48.0 kHz
Frame rate : 31.250 FPS (1536 SPF)
Bit depth : 16 bits
Compression mode : Lossy
Stream size : 301 MiB (1%)
Title : iTunes
Language : Russian
Service kind : Complete Main
Default : Yes
Forced : Yes

Audio #2
ID : 3
Format : MLP FBA 16-ch
Format/Info : Meridian Lossless Packing FBA with 16-channel presentation
Commercial name : Dolby TrueHD with Dolby Atmos
Codec ID : A_TRUEHD
Duration : 1 h 49 min
Bit rate mode : Variable
Bit rate : 4 825 kb/s
Maximum bit rate : 8 115 kb/s
Channel(s) : 8 channels
Channel layout : L R C LFE Ls Rs Lb Rb
Sampling rate : 48.0 kHz
Frame rate : 1 200.000 FPS (40 SPF)
Compression mode : Lossless
Stream size : 3.70 GiB (7%)
Title : Original
Language : German
Default : No
Forced : No
Number of dynamic objects : 11
Bed channel count : 1 channel
Bed channel configuration : LFE

Audio #3
ID : 4
Format : AC-3
Format/Info : Audio Coding 3
Commercial name : Dolby Digital
Codec ID : A_AC3
Duration : 1 h 49 min
Bit rate mode : Constant
Bit rate : 640 kb/s
Channel(s) : 6 channels
Channel layout : L R C LFE Ls Rs
Sampling rate : 48.0 kHz
Frame rate : 31.250 FPS (1536 SPF)
Bit depth : 16 bits
Compression mode : Lossy
Stream size : 503 MiB (1%)
Language : German
Service kind : Complete Main
Default : No
Forced : No

Menu
00:00:00.000 : en:The Package
00:08:29.801 : en:Where do i come from?
00:17:28.965 : en:Adventure Begins
00:27:20.180 : en:In Mandala
00:37:23.491 : en:Where is Li Si?
00:45:46.577 : en:The Valley of Twilight
00:54:37.191 : en:The Pseudo Giant
01:02:09.517 : en:Region of the Black Rocks
01:14:04.982 : en:The Dragon Town in Morrowland
01:24:52.754 : en:Rescue Mission
01:33:58.091 : en:Return
01:40:14.091 : en:When are we going to take a journey again?
Источник http://BlaTor.org

Трекер:  [ 27-Ноя-2018 04:50 ]

  

Скачать .torrent

Размер .torrent файла 252 KB


Размер: 50.46 GB
Хэш (hash) релиза: 691c0752662ea44b917bdee5818c4234f3be8fb7
Подписка на обновления:

Торренты, похожие на Джим Пуговка и машинист Лукас Jim Knopf und Lukas der Lokomotivf?hrer скачать торрент

Форум Название Автор Размер S L Добавлен
Зарубежные фильмы 2016-2018 (Новинки зарубежного кино) ·%· Джим Пуговка и машинист Лукас / Jim Knopf und Lukas der Lokomotivf?hrer (2018) BDRip-AVC от OlLanDGroup | iTunes Galfimbul 18056289841.68 GB 0 0 1546806007

23:20

6-Янв-19

Зарубежные фильмы 2016-2018 (Новинки зарубежного кино) ·%· Джим Пуговка и машинист Лукас / Jim Knopf und Lukas der Lokomotivf?hrer (2018) BDRip от ExKinoRay | iTunes Galfimbul 15185365541.41 GB 0 0 1545933028

20:50

27-Дек-18

Зарубежные фильмы 2016-2018 (Новинки зарубежного кино) ·%· Джим Пуговка и машинист Лукас / Jim Knopf und Lukas der Lokomotivf?hrer (2018) BDRip от ExKinoRay | iTunes Galfimbul 22932480002.14 GB 0 0 1545933015

20:50

27-Дек-18

Зарубежные фильмы 2016-2018 (Новинки зарубежного кино) ·%· Джим Пуговка и машинист Лукас / Jim Knopf und Lukas der Lokomotivf?hrer (2018) BDRip 1080p от селезень | iTunes Galfimbul 102768393889.57 GB 0 0 1545742824

16:00

25-Дек-18

Зарубежные фильмы 2016-2018 (Новинки зарубежного кино) ·%· Джим Пуговка и машинист Лукас / Jim Knopf und Lukas der Lokomotivf?hrer (2018) BDRemux 1080p от селезень | iTunes Galfimbul 2781468362825.9 GB 0 0 1545739810

15:10

25-Дек-18

Зарубежные фильмы 2016-2018 (Новинки зарубежного кино) ·%· Джим Пуговка и машинист Лукас / Jim Knopf und Lukas der Lokomotivf?hrer (2018) UHD Blu-Ray 2160p | 4K | HDR | iTunes Galfimbul 5872899162554.7 GB 0 0 1543452070

03:41

29-Ноя-18

Зарубежные фильмы 2016-2018 (Новинки зарубежного кино) ·%· Джим Пуговка и машинист Лукас / Jim Knopf und Lukas der Lokomotivf?hrer (2018) WEB-DLRip | КПК | iTunes Galfimbul 458563958437 MB 0 0 1541331699

14:41

4-Ноя-18

Зарубежные фильмы 2016-2018 (Новинки зарубежного кино) ·%· Джим Пуговка и машинист Лукас / Jim Knopf und Lukas der Lokomotivf?hrer (2018) WEB-DLRip от MegaPeer | iTunes Galfimbul 781645824745 MB 0 0 1541152993

13:03

2-Ноя-18

Зарубежные фильмы 2016-2018 (Новинки зарубежного кино) ·%· Джим Пуговка и машинист Лукас / Jim Knopf und Lukas der Lokomotivf?hrer (2018) WEB-DL 720р | iTunes Galfimbul 37841736613.52 GB 0 0 1541060952

11:29

1-Ноя-18

johnlennon

Instagram is a social media app that allows users to share photos and videos from their lives, add captions, edit filters, tweak settings and engage with others. Click Instagram video downloader free.

Хотите добавить комментарий к записи скачать торрент Джим Пуговка и машинист Лукас Jim Knopf und Lukas der Lokomotivf?hrer

!Обратная связь
Otobüste gizli çekim etek altı frikik | Heaven Wars Shurato OVA Episode 4 English Subbed | DOG RACING